You are not logged in
MDF195PWF866F
Icerbox.com
Direct download
0%
Cached source snippet
. . .
Mind Funk - The Complete CD Collection (1991-1995) RESTORED

Posted By: Rehabilly

Date: 28 Jun 2017 12:20:00



×
Mind Funk - The Complete CD Collection (1991-1995) RESTORED



Close

Mindfunk - The Complete CD Collection (1991-1995) [4CDs]
FLAC+CUE+LOG or MP3 CBR 320 | Complete Scanwork | 1,2 GB or 392 MB

Mindfunk was an interesting and innovative American alternative hard rock band that emerged in the late 80's. They released three albums, the last one in 1995, before disbanding. Their albums remain amongst the best kept secrets in hard rock, with sounds ranging from funk to grunge and preceding the whole stoner-rock underground movement.



×
Mind Funk - The Complete CD Collection (1991-1995) RESTORED



Close

Созданная на излёте восьмидесятых, бывшими участниками нескольких вполне состоявшихся к тому времени коллективов, американская группа Mind Funk навсегда осталась в истории - "слишком гранжевой для металла и слишком тяжёлой для мира альтернативной музыки" - неординарной субстанцией, чья неособо долгая карьера навсегда захлебнулась в пучине коммерческой нецелесообразности… Почитать на русском

История этого коллектива берёт своё начало в Нью-Джерси, где в 1989 году, отцы-основатели - басист John Monte и гитарист Louis Svitek (ex-Zoetrope), приняли решение покинуть культовую нью-йоркскую команду M.O.D. - с целью попробовать себя в чём то новом. Этим новым вскоре и стала формация, поначалу незатейлево названная Mind Fuck, к которой и присоединились остальные участники проекта - второй гитарист Jason Coppola (ex-Chemical Waste), барабанщик Reed St. Mark (ex-Celtic Frost) и вокалист Patrick Dubar (ex-Uniform Choice). Благодаря сохранившимся хорошим отношениям с прежним менеджментом, в лице Джона и Марши Зазулы (тогдашних со-владельцев Megaforce Records), начинающей группе быстро удалось заполучить контракт с крупнейшим лейблом Epic Records (который, кстати, и настоял на смене названия на что-то более пристойное - так Mind сменил приписку на Funk) и после выпуска пилотного мини-альбома "Touch You", в том же 1991 году, последовал и ожидаемый полноразмерник. В то время в Америке уже вовсю грохотала гранжевая революция и пользуясь благоприятной коньюктурой боссы Sony пытались подать ихний дебют как очередной виток в развитии популярного жанра - на что, собственно, у них были некоторые основания (хотя, временами альбом и скатывался в некое прифанкованое подобие ранних Red Hot Chili Peppers). За последовавшим успешным европейским турне последовали и первые перетряски в составе - из-за творческих разногласий коллектив покидают Сент-Марк и Коппола. Их меняют - гитарист Jason Everman (ex-Soundgarden/Nirvana) и ударник Shawn Johnson. Также, несмотря на всецело положительные отзывы критики и не раз отмеченный превосходный концертный потенциал, недовольные продажами (>100.000 копий) альбома владельцы звукозаписывающей компании поспешили избавиться от группы… Спасение приходит вместе со старым другом - Джоном Зазулoй и вторая пластинка выходит уже под маркой его собственной фирмы. - Записанный под руководством опытнейшего Терри Дэйта, на родине гранжа - в Сиэттле, новый альбом показал новую, более тёмную сторону коллектива. От былой весёлости прежнего металлизированного кроссовера не осталось и следа, музыка на альбоме, саркастически названном "Dropped", значительно замедлилась и почти окончательно потеряла свою фанк-металлическую составляющую. Видимо, размолвка с Сони оказала значительное влияние на новый написанный материал, к тому же - теперь их эксперименты попросту стало некому контролировать. (Вдобавок, обида музыкантов на прежних хозяев оказалась столь велика, что с тех пор название группы стало писаться слитно). Как бы там ни было, но материал на новом альбоме оказался действительно сильным, особенно сильна первая сторона пластинки.., и, как показало время, - Dropped, так и остался лучшим альбомом в истории группы.
В конце 93-го года коллектив покидает один из основателей, Дж. Монте, который создаёт новую группу, а позднее присоединяется к Ministry. Дела группы начинают идти всё хуже, и в конце-концов, то ли в результате творческих изысканий, то ли в силу затянувшейся коммерческой безнадёги, группа выпускает свой последний альбом "People Who Fell From The Sky" - более тягучее и мрачное творение с претензией на концептуальность, которое пытается ещё более раздвинуть рамки застоявшегося субстиля. Но несмотря на введение новых элементов, к сожалению, новые вещи не могли выдержать конкуренции с предыдущим альбомом, и по сути являлись лишь его бледной тенью, напрочь лишённые энергитической мощи и запоминаемости предшественника. Похоже, музыканты сами осознали, что забрели в творческий тупик и на этот раз спасать их было уже некому. В итоге диск вышел только в Великобритании, пользовался относительно малым спросом и после непродолжительных колебаний группой было принято решение об окончательном распаде.

An often heard complaint about major labels in the 1980s and 1990s was that their A&R staffs no longer believed in genuine artist development–if an act didn't take off with its first album, the label was unlikely be around for a second, third or fourth album. One act that could have used some insightful artist development in the 1990s was Mindfunk, a decent band that might have developed into a great band with the right label behind it. The band was made up of ex-Uniform Choice vocalist Pat Dunbar; ex-M.O.D. guitarist and bassist Louis J. Svitek and John Monte; ex-Celtic Frost drummer Reed St. Mark; and second guitarist Jason Coppola. Their self-titled debut for Epic Records caused a small media sensation with its aggressive collage of metal, punk, and funk, but bombed in stores. By the time the band came off the road in support of the album, both St. Mark and Coppola were gone, replaced by drummer Shawn Johnson and ex-Nirvana guitarist/ex-Soundgarden bassist Jason Everman. Dropped by Epic just as they were about to re-enter the studio, Mind Funk signed with Megaforce to record the appropriately named Dropped, released in 1993. Their latest release is 1995's People Who Fell From the Sky.



×
Mind Funk - The Complete CD Collection (1991-1995) RESTORED



Close

Mind Funk - Mind Funk (1991)
FLAC+CUE+LOG or MP3 CBR 320 Kbps | 48:35 min | 360 or 115 MB



×
Mind Funk - The Complete CD Collection (1991-1995) RESTORED



Close

Mind Funk's 1991 self-titled debut is a highly original amalgamate of its various members' previous metal and punk bands, with a little funk thrown in for fashion's sake (funk metal was the flavor of the day). Virtually every song features an audacious combination of these disparate influences, and discerning listeners will appreciate how effectively the band puts all the pieces together. The solid songwriting is complemented by excellent musicianship and the sarcastic edge of Pat Dunbar's versatile voice. Both "Sugar Ain't So Sweet" and "Blood Runs Red" slowly build from alluring melodies into chugging metal riffs, and the latter even features some salsa-style drumming. "Bring It On" glides on an excellent mid-pace groove, while songs such as "Ride and Drive" and "Big House Burning Down" (anchored on a powerful bass riff) pummel at full speed from start to finish. Finally, the most unique offering arrives in "Sister Blue," an acoustic-led bluesy number featuring tasteful soloing from guitarist Louis Svitek.
Tracklist:

01. Sugar Ain't So Sweet
02. Ride & Drive
03. Bring It On
04. Big House Burning
05. Fire
06. Blood Runs Red [CD Bonus Track]
07. Sister Blue
08. Woke Up This Morning
09. Innocence
10. Touch You

EAC logfile

Exact Audio Copy V1.3 from 2. September 2016

EAC extraction logfile from 28. May 2017, 2:52

Mind Funk / Mind Funk

Used drive : ASUS DRW-24B1ST Adapter: 1 ID: 0

Read mode
: Secure
Utilize accurate stream : Yes
Defeat audio cache : Yes
Make use of C2 pointers : No

Read offset correction
: 6
Overread into Lead-In and Lead-Out
: No
Fill up missing offset samples with silence : Yes
Delete leading and trailing silent blocks : No
Null samples used in CRC calculations : Yes
Used interface
: Native Win32 interface for Win NT & 2000

Used output format : Internal WAV Routines
Sample format : 44.100 Hz; 16 Bit; Stereo

TOC of the extracted CD

Track | Start | Length | Start sector | End sector
––––––––––––––––––––––––––––-

1 | 0:00.00 | 4:44.33 |
0 | 21332

2 | 4:44.33 | 3:45.10 | 21333 | 38217

3 | 8:29.43 | 4:53.52 | 38218 | 60244

4 | 13:23.20 | 4:29.28 | 60245 | 80447

5 | 17:52.48 | 6:36.37 | 80448 | 110184

6 | 24:29.10 | 4:04.58 | 110185 | 128542

7 | 28:33.68 | 6:00.15 | 128543 | 155557

8 | 34:34.08 | 5:14.50 | 155558 | 179157

9 | 39:48.58 | 4:03.52 | 179158 | 197434
10 | 43:52.35 | 4:42.45 | 197435 | 218629

Range status and errors

Selected range

Filename F:\_Rehabilly\MINDFUNK\1991- Mind Funk\Mind Funk - Mind Funk (EK 46902-2).wav

Peak level 97.2 %
Extraction speed 8.1 X
Range quality 100.0 %
Test CRC C0C516A9
Copy CRC C0C516A9
Copy OK

No errors occurred

AccurateRip summary

Track 1 accurately ripped (confidence 16) [B7B3F7CD] (AR v2)
Track 2 accurately ripped (confidence 16) [75C56E1C] (AR v2)
Track 3 accurately ripped (confidence 16) [95218624] (AR v2)
Track 4 accurately ripped (confidence 15) [C003F47B] (AR v2)
Track 5 accurately ripped (confidence 16) [DA382892] (AR v2)
Track 6 accurately ripped (confidence 16) [590B2A1C] (AR v2)
Track 7 accurately ripped (confidence 16) [A312B656] (AR v2)
Track 8 accurately ripped (confidence 15) [BED899EA] (AR v2)
Track 9 accurately ripped (confidence 16) [9128F27C] (AR v2)
Track 10 accurately ripped (confidence 16) [A96B4F9F] (AR v2)

All tracks accurately ripped

End of status report

==== Log checksum 355C50DE49A632369AE612CC41DF39382892E7340CD8D899F6C27F530FA22494 ====

Produced by Jan Eliasson and Mind Funk
Recorded at El Sound Studio, Copenhagen, Denmark.

• Patrick Dubar - lead & backing vocals
• Louis Svitek - lead, rhythm & acoustic guitar
• Jason Coppola - rhythm guitar, backing vocals
• John Monte - bass, backing vocals
• Reed St.Mark - drums & percussion

Release Date: March 12, 1991
Label: Epic Records (Sony)
Catalog No.: EK 46902-2



×
Mind Funk - The Complete CD Collection (1991-1995) RESTORED



Close

Mind Funk - Touch You (1991) [CD-EP]
FLAC+CUE+LOG or MP3 CBR 320 | 17:02 min | 130 or 137 MB

Four-track CD-EP. Title hit single taken from the Mind Funk self-titled album plus three previously unreleased tracks.

Tracklist:

01. Touch You
02. Bang Time
03. Velvet Jane
04. Surprise Touch

EAC logfile

Exact Audio Copy V1.0 beta 1 from 15. November 2010

EAC extraction logfile from 6. October 2011, 16:05

Mind Funk / Touch You (CD-EP)

Used drive : PLEXTOR DVDR PX-716A Adapter: 1 ID: 0

Read mode
: Secure
Utilize accurate stream : Yes
Defeat audio cache : Yes
Make use of C2 pointers : No

Read offset correction
: 30
Overread into Lead-In and Lead-Out
: No
Fill up missing offset samples with silence : Yes
Delete leading and trailing silent blocks : No
Null samples used in CRC calculations : Yes
Used interface
: Installed external ASPI interface

Used output format : Internal WAV Routines
Sample format : 44.100 Hz; 16 Bit; Stereo

TOC of the extracted CD

Track | Start | Length | Start sector | End sector
––––––––––––––––––––––––––––-

1 | 0:00.00 | 4:43.45 |
0 | 21269

2 | 4:43.45 | 3:21.20 | 21270 | 36364

3 | 8:04.65 | 4:13.42 | 36365 | 55381

4 | 12:18.32 | 4:43.33 | 55382 | 76639

Range status and errors

Selected range

Filename C:\AvaxHome.ru\Mind Funk - Touch You (CD-EP 1991)\Mind Funk - Touch You (CD-EP).wav

Peak level 97.3 %
Extraction speed 1.3 X
Range quality 99.9 %
Test CRC 97DD2A25
Copy CRC 97DD2A25
Copy OK

No errors occurred

AccurateRip summary

Track 1 not present in database
Track 2 not present in database
Track 3 not present in database
Track 4 not present in database

None of the tracks are present in the AccurateRip database

End of status report

==== Log checksum B333A811DE6AE630E56D51A216B74EDDF67DF3B12958E5CC365128999D124746 ====

Produced by Jan Eliasson and Mind Funk
Recorded at El Sound Studio, Copenhagen, Denmark.

• Patrick Dubar - lead & backing vocals
• Louis Svitek - lead, rhythm & acoustic guitar
• Jason Coppola - rhythm guitar, backing vocals
• John Monte - bass, backing vocals
• Reed St.Mark - drums & percussion

Release Date: 1991
Format: CD-EP
Label: Epic Records (Sony)
Catalog No.: 657618-2



×
Mind Funk - The Complete CD Collection (1991-1995) RESTORED



Close

Mindfunk - Dropped (1993) [Japanese Pressing]
FLAC+CUE+LOG or MP3 CBR 320 Kbps | 64:07 min | 447 or 146 MB

On their second album, the sneeringly-titled "Dropped", Mindfunk vent a little label-related bitterness, and attempt to separate themselves meaningfully from the funk-metal pack. World-class producer Terry Date delivers the slowed-down grooves in an airtight, vacuum sealed muscular-as-hell package that would presage the work he did for Soundgarden on "Badmotorfinger". Its worth comparing the two albums as "Dropped" does contain more than one obvious nod in the direction of Seattle. Opener "Goddess", with its excellent riffing and understated solo work, and the insistent, almost middle-eastern drone metal of "In The Way Eye" are to me the most interesting of this rather lengthy, mostly mid-tempo sophomore set. Having lost drummer extraordinaire Reed St. Mark to Celtic Frost, much of the rhytmic energy and flashy musicianship of their self-titled debut is gone. Stripped down thusly, the songs reveal themselves to be brooding,intensely focused groove monsters that can occasionally end up just slightly on this side of meandering. The album's biggest sin is its sameness, and towards the latter fourth of the album it starts to get a little long in the tooth. "Mama, Moses and Me" is probably the only track that recalls the manic energy of the debut, more often than not replaced with more moody, solemn work like "Drowning." Solid, almost classy in some ways, but it could have really used one or two more uptempo tunes and a few of the psychedelic excesses shaved from the third album. Tracklist:

01. Goddess
02. Closer
03. Drowning
04. In The Way Eye
05. Zootiehead
06. Wisteria
07. Mama, Moses And Me
08. 11 Ton Butterfly
09. Hogwallow
10. Billygoat
11. Hollow

EAC logfile

Exact Audio Copy V1.3 from 2. September 2016

EAC extraction logfile from 27. May 2017, 2:43

Mindfunk / Dropped

Used drive : ASUS DRW-24B1ST Adapter: 1 ID: 0

Read mode
: Secure
Utilize accurate stream : Yes
Defeat audio cache : Yes
Make use of C2 pointers : No

Read offset correction
: 6
Overread into Lead-In and Lead-Out
: No
Fill up missing offset samples with silence : Yes
Delete leading and trailing silent blocks : No
Null samples used in CRC calculations : Yes
Used interface
: Native Win32 interface for Win NT & 2000

Used output format : Internal WAV Routines
Sample format : 44.100 Hz; 16 Bit; Stereo

TOC of the extracted CD

Track | Start | Length | Start sector | End sector
––––––––––––––––––––––––––––-

1 | 0:00.00 | 5:17.05 |
0 | 23779

2 | 5:17.05 | 5:31.55 | 23780 | 48659

3 | 10:48.60 | 6:31.55 | 48660 | 78039

4 | 17:20.40 | 5:39.60 | 78040 | 103524

5 | 23:00.25 | 4:13.47 | 103525 | 122546

6 | 27:13.72 | 6:59.45 | 122547 | 154016

7 | 34:13.42 | 4:31.63 | 154017 | 174404

8 | 38:45.30 | 6:29.20 | 174405 | 203599

9 | 45:14.50 | 4:57.52 | 203600 | 225926
10 | 50:12.27 | 5:16.60 | 225927 | 249686
11 | 55:29.12 | 8:38.03 | 249687 | 288539

Range status and errors

Selected range

Filename F:\_Rehabilly\MINDFUNK\1993- Dropped (Japanese Pressing)\Mindfunk - Dropped (PSCW-5008).wav

Peak level 100.0 %
Extraction speed 3.3 X
Range quality 99.9 %
Test CRC 54C4F6B9
Copy CRC 54C4F6B9
Copy OK

No errors occurred

AccurateRip summary

Track 1 not present in database
Track 2 not present in database
Track 3 not present in database
Track 4 not present in database
Track 5 not present in database
Track 6 not present in database
Track 7 not present in database
Track 8 not present in database
Track 9 not present in database
Track 10 not present in database
Track 11 not present in database

None of the tracks are present in the AccurateRip database

End of status report

==== Log checksum E6D896BC64565E496F7775F67EDA3BB2C3292C5EDEBEA608218FCE70A3B1F380 ====

Produced, Engineered & Mixed by Terry Date
Recorded at Bad Animals Studios, Seattle, WA.

• Patrick Dubar - vocals
• Louis Svitek - guitar, vocals
• Jason Everman - guitar, vocals
• John Monte - bass
• Shawn Johnson - drums

Original Release Date: May 4, 1993
Released in Japan: May 26, 1993
Label: Megaforce/Polystar Co. Ltd., Japan
Catalog No.: PSCW-5008



×
Mind Funk - The Complete CD Collection (1991-1995) RESTORED



Close

Mindfunk - People Who Feel From The Sky (1995) [Japanese Pressing]
FLAC+CUE+LOG or MP3 CBR 320 | 46:23 min | 300 or 107 MB

"People Who Fell From the Sky" represents Mindfunk's 3rd album, with their 3rd different lineup, 3rd different label and 3rd different genre change, you could say they changed between each album, to say the least. Sadly, this also represented their final recording effort. Mindfunk then recorded and released their third album, People Who Fell From The Sky, without much support from their label. They didn't even have a contract in the US, hence the availability problems of the album. The music is even darker than on their previous albums and reminiscent of early Black Sabbath mood-wise, preceding much of the Stoner-Rock movement that soon became trendy.
Tracklist:

01. Rift Valley Fever
02. Superchief
03. Seasick
04. Deep End
05. People Who Fell From The Sky
06. Weird Water
07. Aluna
08. 1000 Times
09. Kill The Messenger
10. Acrobats Falling

EAC Logfile

Exact Audio Copy V1.0 beta 1 from 15. November 2010

EAC extraction logfile from 20. June 2011, 21:51

Mindfunk / People Who Fell From The Sky

Used drive : PLEXTOR DVDR PX-716A Adapter: 1 ID: 0

Read mode
: Secure
Utilize accurate stream : Yes
Defeat audio cache : Yes
Make use of C2 pointers : No

Read offset correction
: 30
Overread into Lead-In and Lead-Out
: No
Fill up missing offset samples with silence : Yes
Delete leading and trailing silent blocks : No
Null samples used in CRC calculations : Yes
Used interface
: Installed external ASPI interface

Used output format : Internal WAV Routines
Sample format : 44.100 Hz; 16 Bit; Stereo

TOC of the extracted CD

Track | Start | Length | Start sector | End sector
––––––––––––––––––––––––––––-

1 | 0:00.00 | 4:21.60 |
0 | 19634

2 | 4:21.60 | 4:55.07 | 19635 | 41766

3 | 9:16.67 | 4:57.38 | 41767 | 64079

4 | 14:14.30 | 4:26.22 | 64080 | 84051

5 | 18:40.52 | 3:16.40 | 84052 | 98791

6 | 21:57.17 | 3:00.40 | 98792 | 112331

7 | 24:57.57 | 6:17.60 | 112332 | 140666

8 | 31:15.42 | 3:46.53 | 140667 | 157669

9 | 35:02.20 | 5:39.65 | 157670 | 183159
10 | 40:42.10 | 5:41.15 | 183160 | 208749

Range status and errors

Selected range

Filename C:\AvaxHome.ru\1995- People Who Feel From The Sky (1995) [Japan]\Mindfunk - The People Who Fell From The Sky (PSCW-5303).wav

Peak level 97.7 %
Extraction speed 0.9 X
Range quality 99.9 %
Test CRC E7E6E6A0
Copy CRC E7E6E6A0
Copy OK

No errors occurred

AccurateRip summary

Track 1 not present in database
Track 2 not present in database
Track 3 not present in database
Track 4 not present in database
Track 5 not present in database
Track 6 not present in database
Track 7 not present in database
Track 8 not present in database
Track 9 not present in database
Track 10 not present in database

None of the tracks are present in the AccurateRip database

End of status report

==== Log checksum 37B58D900B0D6B5D21A6F84B3635FC3AB81FC01E5E725616169180381C1ED612 ====

Produced & Mixed by Mindfunk and Van Christie
Recorded at Warzone1 Recorders. Engineered by Jason McNinch
Mastered by Tom Coyne at Sterling Sound, New York.

• Patrick Dubar - vocals
• Louis Svitek - guitar
• Frank Ciampi - bass
• Shawn Johnson - drums

Original Release Date: March 1, 1995
Released in Japan: May 25, 1995
Label: Polystar Co., Ltd.
Catalog No.: PSCW-5303

What's new:
New rip and scans for the 1st & 2nd album
# MP3 for both 1991 releases combined into 1 package

* EAC Image, embedded cuesheet & more, foobar2000 ready, etc.
(all CUEs, LOGs and other technical info includes in the internal "CD_Support" archive)

MIND FUNK (1991)

THE RIGHT CHOICE *

ALL PNG COVERS (39 MB)

LOSSY (MP3 CBR 320)#

TOUCH YOU (CD-EP)

THE RIGHT CHOICE *

ALL PNG COVERS (17 MB)

DROPPED (1993)

THE RIGHT CHOICE *

ALL PNG COVERS (99 MB)

LOSSY (MP3 CBR 320)

PEOPLE WHO FELL (1995)

THE RIGHT CHOICE *

ALL PNG COVERS (63 MB)

LOSSY (MP3 CBR 320)
. . .
 
Direct links
Copy to clipboard
Copied !

Send to a friend!

To email:

Your name:

Your email:

 

Source:

Status:
All files ok -- last check on 6/28/2017
Password:
None detected, if needed visit the source site
Source title:
Mind Funk - The Complete CD Collection (1991-1995) RESTORED
nfo
User comments
Loading . . .

Author:
Message:
Reload Image
Code:
Install SD Tools for Firefox | Chrome
SD ToolsSD Tools

With SD Tools addon you can access ShareDir services from any page on the web.
Features include:
  • checking selected rapidgator/nitroflare/uploaded/etc. links
  • extracting all or links from specific hosts (ie. mediafire) from the current page
  • searching ShareDir for the selected terms
  • direct download of files from any website using your dk-vip2.com account
  • converting waiting links to direct download links

Click on the link for more info
Search plugin

This is our search plugin.

It enables you to search directly from your browser, without even visiting our website first.

It's free and installs in a second.
147,671,950 files in our database
17,503 files added today

Direct Download

Paste the link here to download without waiting


eg. http://www.mediafire.com/?gldgnyynz4z

Convert multiple links to Direct download links


enter one link per line
Supported file sharing services:
MediaFire.com, 4Shared.com, Uploaded.net, FileFactory.com, Share-Online.biz*, Rapidgator.net, HitFile.net, Filesmonster.com, Mega.co.nz, Novafile.com*, Uptobox.com, 1fichier.com, BigFile.to, NitroFlare.com*, YouTube.com, DataFile.com, TezFiles.com*, IcerBox.com*, depFile.com*
Close

Get a Premium account

and enjoy these premium features

  • Download without limits from 19 hosts
  • Unlimited speed
  • *50 GB traffic with 5 GB added daily
  • Multiple simultaneous downloads
  • Download resuming
  • Support for download managers
  • Download files directly from any site on the web through our SD Tools browser plugin
  • No advertisements
Get Premium
Supported file sharing services:
MediaFire.com, 4Shared.com, Uploaded.net, FileFactory.com, Share-Online.biz, Rapidgator.net, HitFile.net, Filesmonster.com, Mega.co.nz, Novafile.com, Uptobox.com, 1fichier.com, BigFile.to, NitroFlare.com, YouTube.com, DataFile.com, TezFiles.com, IcerBox.com, depFile.com
*Traffic limits:
You will get 50 GB of download traffic every month + 5 GB added daily, up to a 50 GB maximum.
Close